minecraft

minecraft作者

默认节点·18.2天前

压制失败,求解答,谢谢

D:\Program Files (x86)\MarukoToolbox>"D:\Program Files (x86)\MarukoToolbox\tools\ffmpeg.exe" -i "F:\233.avi" -strict -1 -f yuv4mpegpipe -an - | "D:\Program Files (x86)\MarukoToolbox\tools\x265_64-8bit[gcc].exe" --y4m --pass 1 --bitrate 2900 --stats "D:\Program Files (x86)\MarukoToolbox\temp\233_vtemp.stats" --tune film --qcomp 0.65 --keyint auto --min-keyint 1 --profile high --level 5.1 --preset 8 --scenecut 60 --aq-mode 2 --aq-strength 0.8 --ref 12 -o NUL -
ffmpeg version N-81989-g7845c13 Copyright (c) 2000-2016 the FFmpeg developers

built with gcc 5.4.0 (GCC)

configuration: --enable-gpl --enable-version3 --disable-w32threads --enable-dxva2 --enable-libmfx --enable-nvenc --enable-avisynth --enable-bzlib --enable-libebur128 --enable-fontconfig --enable-frei0r --enable-gnutls --enable-iconv --enable-libass --enable-libbluray --enable-libbs2b --enable-libcaca --enable-libfreetype --enable-libgme --enable-libgsm --enable-libilbc --enable-libmodplug --enable-libmp3lame --enable-libopencore-amrnb --enable-libopencore-amrwb --enable-libopenh264 --enable-libopenjpeg --enable-libopus --enable-librtmp --enable-libschroedinger --enable-libsnappy --enable-libsoxr --enable-libspeex --enable-libtheora --enable-libtwolame --enable-libvidstab --enable-libvo-amrwbenc --enable-libvorbis --enable-libvpx --enable-libwavpack --enable-libwebp --enable-libx264 --enable-libx265 --enable-libxavs --enable-libxvid --enable-libzimg --enable-lzma --enable-decklink --enable-zlib

libavutil

55. 32.100 / 55. 32.100

libavcodec

57. 61.103 / 57. 61.103

libavformat

57. 52.100 / 57. 52.100

libavdevice

57. 0.102 / 57. 0.102

libavfilter

6. 64.100 / 6. 64.100

libswscale

4. 1.100 / 4. 1.100

libswresample 2. 2.100 / 2. 2.100

libpostproc

54. 0.100 / 54. 0.100
Input #0, avi, from 'F:\233.avi':

Duration: 00:02:02.60, start: 0.000000, bitrate: 1769500 kb/s

Stream #0:0: Video: rawvideo, bgra, 1280x720, 60 fps, 60 tbr, 60 tbn, 60 tbc
[yuv4mpegpipe @ 04de30a0] ERROR: yuv4mpeg can only handle yuv444p, yuv422p, yuv420p, yuv411p and gray8 pixel formats. And using 'strict -1' also yuv444p9, yuv422p9, yuv420p9, yuv444p10, yuv422p10, yuv420p10, yuv444p12, yuv422p12, yuv420p12, yuv444p14, yuv422p14, yuv420p14, yuv444p16, yuv422p16, yuv420p16 and gray16 pixel formats. Use -pix_fmt to select one.
Could not write header for output file #0 (incorrect codec parameters ?): I/O errorStream mapping:

Stream #0:0 -> #0:0 (rawvideo (native) -> wrapped_avframe (native))

Last message repeated 1 times
x265 [error]: preset or tune unrecognized
D:\Program Files (x86)\MarukoToolbox>"D:\Program Files (x86)\MarukoToolbox\tools\ffmpeg.exe" -i "F:\233.avi" -strict -1 -f yuv4mpegpipe -an - | "D:\Program Files (x86)\MarukoToolbox\tools\x265_64-8bit[gcc].exe" --y4m --pass 2 --bitrate 2900 --stats "D:\Program Files (x86)\MarukoToolbox\temp\233_vtemp.stats" --tune film --qcomp 0.65 --keyint auto --min-keyint 1 --profile high --level 5.1 --preset 8 --scenecut 60 --aq-mode 2 --aq-strength 0.8 --ref 12 -o "D:\Program Files (x86)\MarukoToolbox\temp\233_vtemp.hevc" -
ffmpeg version N-81989-g7845c13 Copyright (c) 2000-2016 the FFmpeg developers

built with gcc 5.4.0 (GCC)

configuration: --enable-gpl --enable-version3 --disable-w32threads --enable-dxva2 --enable-libmfx --enable-nvenc --enable-avisynth --enable-bzlib --enable-libebur128 --enable-fontconfig --enable-frei0r --enable-gnutls --enable-iconv --enable-libass --enable-libbluray --enable-libbs2b --enable-libcaca --enable-libfreetype --enable-libgme --enable-libgsm --enable-libilbc --enable-libmodplug --enable-libmp3lame --enable-libopencore-amrnb --enable-libopencore-amrwb --enable-libopenh264 --enable-libopenjpeg --enable-libopus --enable-librtmp --enable-libschroedinger --enable-libsnappy --enable-libsoxr --enable-libspeex --enable-libtheora --enable-libtwolame --enable-libvidstab --enable-libvo-amrwbenc --enable-libvorbis --enable-libvpx --enable-libwavpack --enable-libwebp --enable-libx264 --enable-libx265 --enable-libxavs --enable-libxvid --enable-libzimg --enable-lzma --enable-decklink --enable-zlib

libavutil

55. 32.100 / 55. 32.100

libavcodec

57. 61.103 / 57. 61.103

libavformat

57. 52.100 / 57. 52.100

libavdevice

57. 0.102 / 57. 0.102

libavfilter

6. 64.100 / 6. 64.100

libswscale

4. 1.100 / 4. 1.100

libswresample 2. 2.100 / 2. 2.100

libpostproc

54. 0.100 / 54. 0.100
Input #0, avi, from 'F:\233.avi':

Duration: 00:02:02.60, start: 0.000000, bitrate: 1769500 kb/s

Stream #0:0: Video: rawvideo, bgra, 1280x720, 60 fps, 60 tbr, 60 tbn, 60 tbc
x265 [error]: preset or tune unrecognized
[yuv4mpegpipe @ 030a30a0] ERROR: yuv4mpeg can only handle yuv444p, yuv422p, yuv420p, yuv411p and gray8 pixel formats. And using 'strict -1' also yuv444p9, yuv422p9, yuv420p9, yuv444p10, yuv422p10, yuv420p10, yuv444p12, yuv422p12, yuv420p12, yuv444p14, yuv422p14, yuv420p14, yuv444p16, yuv422p16, yuv420p16 and gray16 pixel formats. Use -pix_fmt to select one.
Could not write header for output file #0 (incorrect codec parameters ?): I/O errorStream mapping:

Stream #0:0 -> #0:0 (rawvideo (native) -> wrapped_avframe (native))

Last message repeated 1 times
D:\Program Files (x86)\MarukoToolbox>"D:\Program Files (x86)\MarukoToolbox\tools\mp4box.exe" -add "D:\Program Files (x86)\MarukoToolbox\temp\233_vtemp.hevc#trackID=1:name=" -new "F:\233_x265.mp4"

Cannot find file D:\Program Files (x86)\MarukoToolbox\temp\233_vtemp.hevc
Cannot find file D:\Program Files (x86)\MarukoToolbox\temp\233_vtemp.hevc
Error importing D:\Program Files (x86)\MarukoToolbox\temp\233_vtemp.hevc#trackID=1:name=: Requested URL is not valid or cannot be found
D:\Program Files (x86)\MarukoToolbox>del "D:\Program Files (x86)\MarukoToolbox\temp\233_vtemp.hevc"
找不到 D:\Program Files (x86)\MarukoToolbox\temp\233_vtemp.hevc
D:\Program Files (x86)\MarukoToolbox>echo ===== one file is completed! =====
===== one file is completed! =====

评论 0 立即评论

目前尚无评论

后发表评论